[Login] or [Signup]
Login
Username:
Password:
[Signup]
[Recover Account]



Poll


You must be logged in to view polls



Torrent Details For "Death Wish 2018 HDCAM x264 AAC"

Death Wish 2018 HDCAM x264 AAC

Download this torrent
Health:
Seeds: 0
Leechers: 0
Completed:
Last Checked: 13-03-2018 09:40:53
Tracked: EXTERNAL



Details
Name:Death Wish 2018 HDCAM x264 AAC
Description:
[center]



General
Format                                   : Matroska
Format version                           : Version 4 / Version 2
File size                                : 818 MiB
Duration                                 : 1 h 39 min
Overall bit rate                         : 1 147 kb/s

Video
ID                                       : 1
Format                                   : AVC
Format/Info                              : Advanced Video Codec
Format profile                           : High@L4.1
Format settings                          : CABAC / 4 Ref Frames
Format settings, CABAC                   : Yes
Format settings, RefFrames               : 4 frames
Codec ID                                 : V_MPEG4/ISO/AVC
Duration                                 : 1 h 39 min
Bit rate                                 : 1 050 kb/s
Width                                    : 720 pixels
Height                                   : 304 pixels
Display aspect ratio                     : 2.35:1
Frame rate mode                          : Constant
Frame rate                               : 29.970 (30000/1001) FPS
Color space                              : YUV
Chroma subsampling                       : 4:2:0
Bit depth                                : 8 bits
Scan type                                : Progressive
Bits/(Pixel*Frame)                       : 0.160
Stream size                              : 748 MiB (91%)
Writing library                          : x264 core 148 r2708 86b7198
Default                                  : Yes
Forced                                   : No

Audio
ID                                       : 2
Format                                   : AAC
Format/Info                              : Advanced Audio Codec
Format profile                           : LC
Codec ID                                 : A_AAC-2
Duration                                 : 1 h 39 min
Bit rate                                 : 96.0 kb/s
Channel(s)                               : 2 channels
Channel positions                        : Front: L R
Sampling rate                            : 44.1 kHz
Frame rate                               : 43.066 FPS (1024 SPF)
Compression mode                         : Lossy
Stream size                              : 68.5 MiB (8%)
Default                                  : Yes
Forced                                   : No




https://pichub.site/image/fXVg8
https://pichub.site/image/fXwM5
https://pichub.site/image/fXCpj
https://pichub.site/image/fXyth
https://pichub.site/image/fXher
[/center]
Category:Movies > Other
Lang:English  English
Total Size:817.86 MB
Info Hash:4f06ba07932928a2247e345e58e6d83a0ca46eac
Added By:MovieFreak
Date Added:13-03-2018 09:40:53
Views:30
Hits:27


Ratings:Not Yet Rated (Log in to rate it)


Tracker:
udp://tracker.pirateparty.gr:6969/announce

This Torrent also has backup trackers
URLSeedersLeechersCompleted
http://tracker.opentrackr.org/announce000
http://tracker.vanitycore.co:6969/announce000
http://public.popcorn-tracker.org:6969/announce000


File List: 


Comments

No comments still posted

Latest Torrents
Hooligan Escape Th...
- [Size: 1.58 GB]

47 Ronin 2013 720p...
- [Size: 1.46 GB]

Thousand Yard Star...
- [Size: 1.96 GB]

Modern Life Is Rub...
- [Size: 1.86 GB]

Hammer Horror The ...
- [Size: 940.51 MB]


Search





Online Users
No Users Online

RSS
This would need editing with an rss feed of your choice.

Powered by TorrentTrader v2-svn -|- Page Generated In 0.016254 secs.
www.torrenttrader.org -|- -|- RSS Feed -|- Feed Info
Theme By: Nikkbu