[Login] or [Signup]
Login
Username:
Password:
[Signup]
[Recover Account]



Poll


You must be logged in to view polls



Torrent Details For "78 52 Hitchcock's Shower Scene 2017 720p BRRip x26..."

78 52 Hitchcock's Shower Scene 2017 720p BRRip x26...

Download this torrent
Health:
Seeds: 0
Leechers: 0
Completed:
Last Checked: 12-04-2018 22:28:13
Tracked: EXTERNAL



Details
Name:78 52 Hitchcock's Shower Scene 2017 720p BRRip x26...
Description:
[center]



General
Format                                   : Matroska
Format version                           : Version 4 / Version 2
File size                                : 720 MiB
Duration                                 : 1 h 31 min
Overall bit rate                         : 1 097 kb/s

Video
ID                                       : 1
Format                                   : AVC
Format/Info                              : Advanced Video Codec
Format profile                           : High@L4.1
Format settings                          : CABAC / 4 Ref Frames
Format settings, CABAC                   : Yes
Format settings, RefFrames               : 4 frames
Codec ID                                 : V_MPEG4/ISO/AVC
Duration                                 : 1 h 31 min
Bit rate                                 : 1 000 kb/s
Width                                    : 1 280 pixels
Height                                   : 692 pixels
Display aspect ratio                     : 1.85:1
Frame rate mode                          : Constant
Frame rate                               : 23.976 (24000/1001) FPS
Color space                              : YUV
Chroma subsampling                       : 4:2:0
Bit depth                                : 8 bits
Scan type                                : Progressive
Bits/(Pixel*Frame)                       : 0.047
Stream size                              : 656 MiB (91%)
Writing library                          : x264 core 155 r2893 b00bcaf
Default                                  : Yes
Forced                                   : No

Audio
ID                                       : 3
Format                                   : AAC
Format/Info                              : Advanced Audio Codec
Format profile                           : HE-AAC / LC
Format settings                          : Explicit
Codec ID                                 : A_AAC-2
Duration                                 : 1 h 31 min
Bit rate                                 : 96.0 kb/s
Channel(s)                               : 2 channels
Channel positions                        : Front: L R
Sampling rate                            : 48.0 kHz / 24.0 kHz
Frame rate                               : 23.438 FPS (1024 SPF)
Compression mode                         : Lossy
Stream size                              : 62.2 MiB (9%)
Language                                 : English
Default                                  : Yes
Forced                                   : No

Text
ID                                       : 2
Format                                   : UTF-8
Codec ID                                 : S_TEXT/UTF8
Codec ID/Info                            : UTF-8 Plain Text
Duration                                 : 1 h 25 min
Bit rate                                 : 116 b/s
Count of elements                        : 1798
Stream size                              : 72.6 KiB (0%)
Language                                 : English
Default                                  : Yes
Forced                                   : No

Menu
00:00:00.000                             : en:Chapter 1
00:06:33.935                             : en:Chapter 2
00:13:59.088                             : en:Chapter 3
00:20:07.748                             : en:Chapter 4
00:26:23.123                             : en:Chapter 5
00:32:09.428                             : en:Chapter 6
00:42:23.875                             : en:Chapter 7
00:51:19.201                             : en:Chapter 8
00:58:06.692                             : en:Chapter 9
01:05:55.076                             : en:Chapter 10
01:13:46.422                             : en:Chapter 11
01:20:34.705                             : en:Chapter 12
01:31:45.208                             : en:Chapter 13





https://pichub.site/image/J6pvg
https://pichub.site/image/J62HI
https://pichub.site/image/J6lSX
https://pichub.site/image/J66g8
https://pichub.site/image/J6PnJ
https://pichub.site/image/J6nM5
[/center]
Category:Movies > HD
Lang:English  English
Total Size:719.95 MB
Info Hash:be0446cee4b176ef80705fb0c18c6298aeadc61c
Added By:MovieFreak
Date Added:12-04-2018 22:28:13
Views:9
Hits:4


Ratings:Not Yet Rated (Log in to rate it)


Tracker:
udp://tracker.pirateparty.gr:6969/announce

This Torrent also has backup trackers
URLSeedersLeechersCompleted
http://tracker.vanitycore.co:6969/announce000
http://public.popcorn-tracker.org:6969/announce000


File List: 


Comments

No comments still posted

Latest Torrents
Bleeding Steel 201...
- [Size: 1.28 GB]

Neighbors 2 Sorori...
- [Size: 840.19 MB]

Annabelle Creation...
- [Size: 950.51 MB]

Tremors A Cold Day...
- [Size: 874.61 MB]

Early Man 2018 108...
- [Size: 1.26 GB]


Search





Online Users
No Users Online

RSS
This would need editing with an rss feed of your choice.

Powered by TorrentTrader v2-svn -|- Page Generated In 0.020903 secs.
www.torrenttrader.org -|- -|- RSS Feed -|- Feed Info
Theme By: Nikkbu