[Login] or [Signup]
Login
Username:
Password:
[Signup]
[Recover Account]



Poll


You must be logged in to view polls



Torrent Details For "Submergence 2018 720p WEB-DL x264 [MW]"

Submergence 2018 720p WEB-DL x264 [MW]

Download this torrent
Health:
Seeds: 0
Leechers: 0
Completed:
Last Checked: 13-04-2018 22:59:44
Tracked: EXTERNAL



Details
Name:Submergence 2018 720p WEB-DL x264 [MW]
Description:
[center]



General
Format                                   : Matroska
Format version                           : Version 4 / Version 2
File size                                : 867 MiB
Duration                                 : 1 h 51 min
Overall bit rate                         : 1 085 kb/s

Video
ID                                       : 1
Format                                   : AVC
Format/Info                              : Advanced Video Codec
Format profile                           : High@L4.1
Format settings                          : CABAC / 4 Ref Frames
Format settings, CABAC                   : Yes
Format settings, RefFrames               : 4 frames
Codec ID                                 : V_MPEG4/ISO/AVC
Duration                                 : 1 h 51 min
Bit rate                                 : 1 000 kb/s
Width                                    : 1 280 pixels
Height                                   : 688 pixels
Display aspect ratio                     : 1.85:1
Frame rate mode                          : Constant
Frame rate                               : 23.976 (24000/1001) FPS
Color space                              : YUV
Chroma subsampling                       : 4:2:0
Bit depth                                : 8 bits
Scan type                                : Progressive
Bits/(Pixel*Frame)                       : 0.047
Stream size                              : 790 MiB (91%)
Writing library                          : x264 core 155 r2893 b00bcaf
Default                                  : Yes
Forced                                   : No

Audio
ID                                       : 2
Format                                   : AAC
Format/Info                              : Advanced Audio Codec
Format profile                           : HE-AAC / LC
Format settings                          : Explicit
Codec ID                                 : A_AAC-2
Duration                                 : 1 h 51 min
Bit rate                                 : 96.0 kb/s
Channel(s)                               : 2 channels
Channel positions                        : Front: L R
Sampling rate                            : 48.0 kHz / 24.0 kHz
Frame rate                               : 23.438 FPS (1024 SPF)
Compression mode                         : Lossy
Stream size                              : 75.6 MiB (9%)
Language                                 : English
Default                                  : Yes
Forced                                   : No

Menu
00:00:00.000                             : en:1
00:06:28.430                             : en:2
00:13:12.583                             : en:3
00:19:14.320                             : en:4
00:28:44.681                             : en:5
00:34:03.208                             : en:6
00:43:15.301                             : en:7
00:49:05.317                             : en:8
00:55:17.731                             : en:9
01:03:54.831                             : en:10
01:09:11.397                             : en:11
01:18:00.426                             : en:12
01:24:25.227                             : en:13
01:30:44.564                             : en:14
01:37:13.411                             : en:15
01:43:40.047                             : en:16




https://pichub.site/image/JPUEv
https://pichub.site/image/JPxs9
https://pichub.site/image/JPvud
https://pichub.site/image/JPLau
https://pichub.site/image/JPr8R
https://pichub.site/image/JPo5s
[/center]
Category:Movies > HD
Lang:English  English
Total Size:866.80 MB
Info Hash:5817caea4df15719d6ab0493c268d3f6c6d3378c
Added By:MovieFreak
Date Added:13-04-2018 22:59:44
Views:5
Hits:4


Ratings:Not Yet Rated (Log in to rate it)


Tracker:
udp://tracker.pirateparty.gr:6969/announce

This Torrent also has backup trackers
URLSeedersLeechersCompleted
http://tracker.vanitycore.co:6969/announce000
http://public.popcorn-tracker.org:6969/announce000


File List: 


Comments

No comments still posted

Latest Torrents
Bleeding Steel 201...
- [Size: 1.28 GB]

Neighbors 2 Sorori...
- [Size: 840.19 MB]

Annabelle Creation...
- [Size: 950.51 MB]

Tremors A Cold Day...
- [Size: 874.61 MB]

Early Man 2018 108...
- [Size: 1.26 GB]


Search





Online Users
No Users Online

RSS
This would need editing with an rss feed of your choice.

Powered by TorrentTrader v2-svn -|- Page Generated In 0.042941 secs.
www.torrenttrader.org -|- -|- RSS Feed -|- Feed Info
Theme By: Nikkbu