[Login] or [Signup]
Login
Username:
Password:
[Signup]
[Recover Account]



Poll


You must be logged in to view polls



Torrent Details For "Come Sunday 2018 720p WEBRip x264 ESub [MW]"

Come Sunday 2018 720p WEBRip x264 ESub [MW]

Download this torrent
Health:
Seeds: 0
Leechers: 0
Completed:
Last Checked: 14-04-2018 09:11:20
Tracked: EXTERNAL



Details
Name:Come Sunday 2018 720p WEBRip x264 ESub [MW]
Description:
[center]



General
Format                                   : Matroska
Format version                           : Version 4 / Version 2
File size                                : 885 MiB
Duration                                 : 1 h 45 min
Overall bit rate                         : 1 173 kb/s

Video
ID                                       : 1
Format                                   : AVC
Format/Info                              : Advanced Video Codec
Format profile                           : High@L4.1
Format settings                          : CABAC / 4 Ref Frames
Format settings, CABAC                   : Yes
Format settings, RefFrames               : 4 frames
Codec ID                                 : V_MPEG4/ISO/AVC
Duration                                 : 1 h 45 min
Bit rate                                 : 1 100 kb/s
Width                                    : 1 280 pixels
Height                                   : 536 pixels
Display aspect ratio                     : 2.40:1
Frame rate mode                          : Constant
Frame rate                               : 23.976 (24000/1001) FPS
Color space                              : YUV
Chroma subsampling                       : 4:2:0
Bit depth                                : 8 bits
Scan type                                : Progressive
Bits/(Pixel*Frame)                       : 0.067
Stream size                              : 812 MiB (92%)
Writing library                          : x264 core 155 r2893 b00bcaf
Default                                  : Yes
Forced                                   : No

Audio
ID                                       : 2
Format                                   : AAC
Format/Info                              : Advanced Audio Codec
Format profile                           : HE-AAC / LC
Format settings                          : Explicit
Codec ID                                 : A_AAC-2
Duration                                 : 1 h 45 min
Bit rate                                 : 96.0 kb/s
Channel(s)                               : 2 channels
Channel positions                        : Front: L R
Sampling rate                            : 48.0 kHz / 24.0 kHz
Frame rate                               : 23.438 FPS (1024 SPF)
Compression mode                         : Lossy
Stream size                              : 71.4 MiB (8%)
Language                                 : English
Default                                  : Yes
Forced                                   : No

Text
ID                                       : 3
Format                                   : UTF-8
Codec ID                                 : S_TEXT/UTF8
Codec ID/Info                            : UTF-8 Plain Text
Duration                                 : 1 h 44 min
Bit rate                                 : 80 b/s
Count of elements                        : 1707
Stream size                              : 61.9 KiB (0%)
Language                                 : English
Default                                  : Yes
Forced                                   : No






https://pichub.site/image/JXfI8
https://pichub.site/image/JXa4h
https://pichub.site/image/JXMl5
https://pichub.site/image/JXIyj
https://pichub.site/image/JXOLr
https://pichub.site/image/JXRQk
[/center]
Category:Movies > HD
Lang:English  English
Total Size:884.74 MB
Info Hash:bd5b7974f89cda99c00b9e57c7f9177c48e0fb81
Added By:MovieFreak
Date Added:14-04-2018 09:11:20
Views:5
Hits:3


Ratings:Not Yet Rated (Log in to rate it)


Tracker:
udp://tracker.pirateparty.gr:6969/announce

This Torrent also has backup trackers
URLSeedersLeechersCompleted
http://tracker.vanitycore.co:6969/announce000
http://public.popcorn-tracker.org:6969/announce000


File List: 


Comments

No comments still posted

Latest Torrents
Bleeding Steel 201...
- [Size: 1.28 GB]

Neighbors 2 Sorori...
- [Size: 840.19 MB]

Annabelle Creation...
- [Size: 950.51 MB]

Tremors A Cold Day...
- [Size: 874.61 MB]

Early Man 2018 108...
- [Size: 1.26 GB]


Search





Online Users
No Users Online

RSS
This would need editing with an rss feed of your choice.

Powered by TorrentTrader v2-svn -|- Page Generated In 0.019894 secs.
www.torrenttrader.org -|- -|- RSS Feed -|- Feed Info
Theme By: Nikkbu