[Login] or [Signup]
Login
Username:
Password:
[Signup]
[Recover Account]



Poll


You must be logged in to view polls



Torrent Details For "The Humanity Bureau 2017 1080p BluRay x264 ESub [M..."

The Humanity Bureau 2017 1080p BluRay x264 ESub [M...

Download this torrent
Health:
Seeds: 0
Leechers: 0
Completed:
Last Checked: 14-04-2018 09:35:55
Tracked: EXTERNAL



Details
Name:The Humanity Bureau 2017 1080p BluRay x264 ESub [M...
Description:
[center]


General
Format                                   : Matroska
Format version                           : Version 4 / Version 2
File size                                : 1.68 GiB
Duration                                 : 1 h 34 min
Overall bit rate                         : 2 550 kb/s

Video
ID                                       : 1
Format                                   : AVC
Format/Info                              : Advanced Video Codec
Format profile                           : High@L4.1
Format settings                          : CABAC / 4 Ref Frames
Format settings, CABAC                   : Yes
Format settings, RefFrames               : 4 frames
Codec ID                                 : V_MPEG4/ISO/AVC
Duration                                 : 1 h 34 min
Bit rate                                 : 2 200 kb/s
Width                                    : 1 920 pixels
Height                                   : 804 pixels
Display aspect ratio                     : 2.40:1
Frame rate mode                          : Constant
Frame rate                               : 24.000 FPS
Color space                              : YUV
Chroma subsampling                       : 4:2:0
Bit depth                                : 8 bits
Scan type                                : Progressive
Bits/(Pixel*Frame)                       : 0.059
Stream size                              : 1.43 GiB (85%)
Writing library                          : x264 core 155 r2893 b00bcaf
Default                                  : Yes
Forced                                   : No

Audio
ID                                       : 2
Format                                   : AC-3
Format/Info                              : Audio Coding 3
Codec ID                                 : A_AC3
Duration                                 : 1 h 34 min
Bit rate mode                            : Constant
Bit rate                                 : 384 kb/s
Channel(s)                               : 6 channels
Channel positions                        : Front: L C R, Side: L R, LFE
Sampling rate                            : 48.0 kHz
Frame rate                               : 31.250 FPS (1536 SPF)
Bit depth                                : 16 bits
Compression mode                         : Lossy
Stream size                              : 260 MiB (15%)
Language                                 : English
Service kind                             : Complete Main
Default                                  : Yes
Forced                                   : No

Text
ID                                       : 3
Format                                   : UTF-8
Codec ID                                 : S_TEXT/UTF8
Codec ID/Info                            : UTF-8 Plain Text
Duration                                 : 1 h 29 min
Bit rate                                 : 43 b/s
Count of elements                        : 893
Stream size                              : 28.6 KiB (0%)
Language                                 : English
Default                                  : Yes
Forced                                   : No

Menu
00:00:00.000                             : en:Chapter 1
00:00:34.042                             : en:Chapter 2
00:09:47.917                             : en:Chapter 3
00:15:59.208                             : en:Chapter 4
00:24:11.625                             : en:Chapter 5
00:32:02.542                             : en:Chapter 6
00:38:55.375                             : en:Chapter 7
00:48:29.375                             : en:Chapter 8
00:55:07.000                             : en:Chapter 9
01:04:01.833                             : en:Chapter 10
01:12:48.500                             : en:Chapter 11
01:20:40.083                             : en:Chapter 12
01:29:33.708                             : en:Chapter 13






https://pichub.site/image/JXEGv
https://pichub.site/image/JXcAu
https://pichub.site/image/JXdZd
https://pichub.site/image/JXVI9
https://pichub.site/image/JXk6R
https://pichub.site/image/JXy4s
[/center]
Category:Movies > HD
Lang:English  English
Total Size:1.68 GB
Info Hash:a062112fcae166405aa635794497fe9f7d42d1ab
Added By:MovieFreak
Date Added:14-04-2018 09:35:55
Views:5
Hits:3


Ratings:Not Yet Rated (Log in to rate it)


Tracker:
udp://tracker.pirateparty.gr:6969/announce

This Torrent also has backup trackers
URLSeedersLeechersCompleted
http://tracker.vanitycore.co:6969/announce000
http://public.popcorn-tracker.org:6969/announce000


File List: 


Comments

No comments still posted

Latest Torrents
Bleeding Steel 201...
- [Size: 1.28 GB]

Neighbors 2 Sorori...
- [Size: 840.19 MB]

Annabelle Creation...
- [Size: 950.51 MB]

Tremors A Cold Day...
- [Size: 874.61 MB]

Early Man 2018 108...
- [Size: 1.26 GB]


Search





Online Users
No Users Online

RSS
This would need editing with an rss feed of your choice.

Powered by TorrentTrader v2-svn -|- Page Generated In 0.030267 secs.
www.torrenttrader.org -|- -|- RSS Feed -|- Feed Info
Theme By: Nikkbu