[Login] or [Signup]
Login
Username:
Password:
[Signup]
[Recover Account]



Poll


You must be logged in to view polls



Torrent Details For "The Swan Princess A Royal Myztery 2018 HDRip x264 ..."

The Swan Princess A Royal Myztery 2018 HDRip x264 ...

Download this torrent
Health:
Seeds: 0
Leechers: 0
Completed:
Last Checked: 14-04-2018 12:27:07
Tracked: EXTERNAL



Details
Name:The Swan Princess A Royal Myztery 2018 HDRip x264 ...
Description:
[center]



General
Format                                   : Matroska
Format version                           : Version 4 / Version 2
File size                                : 742 MiB
Duration                                 : 1 h 19 min
Overall bit rate                         : 1 312 kb/s

Video
ID                                       : 1
Format                                   : AVC
Format/Info                              : Advanced Video Codec
Format profile                           : High@L4.1
Format settings                          : CABAC / 4 Ref Frames
Format settings, CABAC                   : Yes
Format settings, RefFrames               : 4 frames
Codec ID                                 : V_MPEG4/ISO/AVC
Duration                                 : 1 h 19 min
Bit rate                                 : 1 200 kb/s
Width                                    : 720 pixels
Height                                   : 400 pixels
Display aspect ratio                     : 16:9
Frame rate mode                          : Constant
Frame rate                               : 23.976 (24000/1001) FPS
Color space                              : YUV
Chroma subsampling                       : 4:2:0
Bit depth                                : 8 bits
Scan type                                : Progressive
Bits/(Pixel*Frame)                       : 0.174
Stream size                              : 669 MiB (90%)
Writing library                          : x264 core 155 r2893 b00bcaf
Default                                  : Yes
Forced                                   : No

Audio
ID                                       : 2
Format                                   : AAC
Format/Info                              : Advanced Audio Codec
Format profile                           : HE-AAC / LC
Format settings                          : Explicit
Codec ID                                 : A_AAC-2
Duration                                 : 1 h 19 min
Bit rate                                 : 127 kb/s
Channel(s)                               : 2 channels
Channel positions                        : Front: L R
Sampling rate                            : 48.0 kHz / 24.0 kHz
Frame rate                               : 23.438 FPS (1024 SPF)
Compression mode                         : Lossy
Stream size                              : 71.6 MiB (10%)
Language                                 : English
Default                                  : Yes
Forced                                   : No





https://pichub.site/image/JXLNg
https://pichub.site/image/JXr1I
https://pichub.site/image/JX2B8
https://pichub.site/image/JXpOX
https://pichub.site/image/JX5PJ
https://pichub.site/image/JX6f5
[/center]
Category:Movies > Other
Lang:English  English
Total Size:741.97 MB
Info Hash:2e78e609a1ecf963fd4b27cdd12249bc6e0ce77b
Added By:MovieFreak
Date Added:14-04-2018 12:27:07
Views:5
Hits:3


Ratings:Not Yet Rated (Log in to rate it)


Tracker:
udp://tracker.pirateparty.gr:6969/announce

This Torrent also has backup trackers
URLSeedersLeechersCompleted
http://tracker.vanitycore.co:6969/announce000
http://public.popcorn-tracker.org:6969/announce000


File List: 


Comments

No comments still posted

Latest Torrents
Bleeding Steel 201...
- [Size: 1.28 GB]

Neighbors 2 Sorori...
- [Size: 840.19 MB]

Annabelle Creation...
- [Size: 950.51 MB]

Tremors A Cold Day...
- [Size: 874.61 MB]

Early Man 2018 108...
- [Size: 1.26 GB]


Search





Online Users
No Users Online

RSS
This would need editing with an rss feed of your choice.

Powered by TorrentTrader v2-svn -|- Page Generated In 0.023605 secs.
www.torrenttrader.org -|- -|- RSS Feed -|- Feed Info
Theme By: Nikkbu