[Login] or [Signup]
Login
Username:
Password:
[Signup]
[Recover Account]



Poll


You must be logged in to view polls



Torrent Details For "Den Of Thieves 2018 UNRATED 1080p BluRay x264 ESub..."

Den Of Thieves 2018 UNRATED 1080p BluRay x264 ESub...

Download this torrent
Health:
Seeds: 0
Leechers: 0
Completed:
Last Checked: 14-04-2018 23:24:01
Tracked: EXTERNAL



Details
Name:Den Of Thieves 2018 UNRATED 1080p BluRay x264 ESub...
Description:
[center]



General
Format                                   : Matroska
Format version                           : Version 4 / Version 2
File size                                : 2.67 GiB
Duration                                 : 2 h 28 min
Overall bit rate                         : 2 568 kb/s

Video
ID                                       : 1
Format                                   : AVC
Format/Info                              : Advanced Video Codec
Format profile                           : High@L4.1
Format settings                          : CABAC / 4 Ref Frames
Format settings, CABAC                   : Yes
Format settings, RefFrames               : 4 frames
Codec ID                                 : V_MPEG4/ISO/AVC
Duration                                 : 2 h 28 min
Bit rate                                 : 2 200 kb/s
Width                                    : 1 920 pixels
Height                                   : 800 pixels
Display aspect ratio                     : 2.40:1
Frame rate mode                          : Constant
Frame rate                               : 23.976 (24000/1001) FPS
Color space                              : YUV
Chroma subsampling                       : 4:2:0
Bit depth                                : 8 bits
Scan type                                : Progressive
Bits/(Pixel*Frame)                       : 0.060
Stream size                              : 2.26 GiB (85%)
Writing library                          : x264 core 155 r2893 b00bcaf
Default                                  : Yes
Forced                                   : No

Audio
ID                                       : 2
Format                                   : AC-3
Format/Info                              : Audio Coding 3
Codec ID                                 : A_AC3
Duration                                 : 2 h 28 min
Bit rate mode                            : Constant
Bit rate                                 : 384 kb/s
Channel(s)                               : 6 channels
Channel positions                        : Front: L C R, Side: L R, LFE
Sampling rate                            : 48.0 kHz
Frame rate                               : 31.250 FPS (1536 SPF)
Bit depth                                : 16 bits
Compression mode                         : Lossy
Stream size                              : 409 MiB (15%)
Language                                 : English
Service kind                             : Complete Main
Default                                  : Yes
Forced                                   : No

Text
ID                                       : 3
Format                                   : VobSub
Muxing mode                              : zlib
Codec ID                                 : S_VOBSUB
Codec ID/Info                            : Picture based subtitle format used on DVDs
Duration                                 : 2 h 20 min
Bit rate                                 : 5 668 b/s
Count of elements                        : 1714
Stream size                              : 5.69 MiB (0%)
Language                                 : English
Default                                  : Yes
Forced                                   : No



https://pichub.site/image/JXXrj
https://pichub.site/image/JXnWr
https://pichub.site/image/JX3Vk
https://pichub.site/image/JXZNQ
https://pichub.site/image/JX11v
https://pichub.site/image/JXHRd

[/center]
Category:Movies > HD
Lang:English  English
Total Size:2.67 GB
Info Hash:601704d1d3efbb0e7aac5cadda15c91472e1ae97
Added By:MovieFreak
Date Added:14-04-2018 23:24:01
Views:7
Hits:2


Ratings:Not Yet Rated (Log in to rate it)


Tracker:
udp://tracker.pirateparty.gr:6969/announce

This Torrent also has backup trackers
URLSeedersLeechersCompleted
http://tracker.vanitycore.co:6969/announce000
http://public.popcorn-tracker.org:6969/announce000


File List: 


Comments

No comments still posted

Latest Torrents
Bleeding Steel 201...
- [Size: 1.28 GB]

Neighbors 2 Sorori...
- [Size: 840.19 MB]

Annabelle Creation...
- [Size: 950.51 MB]

Tremors A Cold Day...
- [Size: 874.61 MB]

Early Man 2018 108...
- [Size: 1.26 GB]


Search





Online Users
No Users Online

RSS
This would need editing with an rss feed of your choice.

Powered by TorrentTrader v2-svn -|- Page Generated In 0.019618 secs.
www.torrenttrader.org -|- -|- RSS Feed -|- Feed Info
Theme By: Nikkbu